Set as default Homepage|Bookmark
 
 
» » G.I. Joe Duology (2009 - 2013) 720p BluRay [Multi Audio][Hindi+Telugu+Tamil+English]
Advertise

G.I. Joe Duology (2009 - 2013) 720p BluRay [Multi Audio][Hindi+Telugu+Tamil+English]

Author: wroser on 7-02-2018, 12:56
G.I. Joe Duology (2009 - 2013) 720p BluRay [Multi Audio][Hindi+Telugu+Tamil+English]






General
Format                      : Matroska
Format version              : Version 4 / Version 2
File size                   : 1.16 GiB
Duration                    : 2 h 3 min
Overall bit rate mode       : Variable
Overall bit rate            : 1 354 kb/s
Encoded date                : UTC 2018-02-05 12:28:13
Writing application         : mkvmerge v7.8.0 ('River Man') 64bit built on Mar 27 2015 16:31:37
Writing library             : libebml v1.3.1 + libmatroska v1.4.2

Video
ID                          : 1
Format                      : AVC
Format/Info                 : Advanced Video Codec
Format profile              : High@L4.1
Format settings, CABAC      : Yes
Format settings, RefFrames  : 5 frames
Codec ID                    : V_MPEG4/ISO/AVC
Duration                    : 2 h 3 min
Bit rate                    : 888 kb/s
Width                       : 1 280 pixels
Height                      : 536 pixels
Display aspect ratio        : 2.40:1
Frame rate mode             : Constant
Frame rate                  : 23.976 (24000/1001) FPS
Original frame rate         : 23.976 (23976/1000) FPS
Color space                 : YUV
Chroma subsampling          : 4:2:0
Bit depth                   : 8 bits
Scan type                   : Progressive
Bits/(Pixel*Frame)          : 0.054
Stream size                 : 781 MiB (66%)
Writing library             : x264 core 132 r2 76a5c3a
Encoding settings           : cabac=1 / ref=5 / deblock=1:-1:-1 / analyse=0x3:0x133 / me=umh / subme=9 / psy=1 / psy_rd=1.00:0.15 / mixed_ref=1 / me_range=24 / chroma_me=1 / trellis=2 / 8x8dct=1 / cqm=0 / deadzone=21,11 / fast_pskip=0 / chroma_qp_offset=-3 / threads=36 / lookahead_threads=3 / sliced_threads=0 / nr=0 / decimate=1 / interlaced=0 / bluray_compat=0 / constrained_intra=0 / bframes=3 / b_pyramid=2 / b_adapt=2 / b_bias=0 / direct=3 / weightb=1 / open_gop=0 / weightp=2 / keyint=250 / keyint_min=23 / scenecut=40 / intra_refresh=0 / rc_lookahead=60 / rc=2pass / mbtree=1 / bitrate=888 / ratetol=1.0 / qcomp=0.60 / qpmin=0 / qpmax=69 / qpstep=4 / cplxblur=20.0 / qblur=0.5 / vbv_maxrate=31250 / vbv_bufsize=31250 / nal_hrd=none / ip_ratio=1.40 / aq=1:1.00
Language                    : English
Default                     : Yes
Forced                      : Yes
Color range                 : Limited
Color primaries             : BT.709
Matrix coefficients         : BT.709

Audio #1
ID                          : 2
Format                      : MPEG Audio
Format version              : Version 1
Format profile              : Layer 3
Mode                        : Joint stereo
Mode extension              : MS Stereo
Codec ID                    : A_MPEG/L3
Codec ID/Hint               : MP3
Duration                    : 2 h 3 min
Bit rate mode               : Variable
Bit rate                    : 120 kb/s
Nominal bit rate            : 128 kb/s
Channel(s)                  : 2 channels
Sampling rate               : 48.0 kHz
Frame rate                  : 41.667 FPS (1152 SPF)
Compression mode            : Lossy
Stream size                 : 106 MiB (9%)
Writing library             : LAME3.99r
Encoding settings           : -m j -V 4 -q 3 -lowpass 17 --abr 128
Language                    : Tamil
Default                     : Yes
Forced                      : Yes

Audio #2
ID                          : 3
Format                      : MPEG Audio
Format version              : Version 1
Format profile              : Layer 3
Mode                        : Joint stereo
Mode extension              : MS Stereo
Codec ID                    : A_MPEG/L3
Codec ID/Hint               : MP3
Duration                    : 2 h 3 min
Bit rate mode               : Variable
Bit rate                    : 128 kb/s
Channel(s)                  : 2 channels
Sampling rate               : 48.0 kHz
Frame rate                  : 41.667 FPS (1152 SPF)
Compression mode            : Lossy
Stream size                 : 108 MiB (9%)
Writing library             : LAME3.99r
Encoding settings           : -m j -V 4 -q 3 -lowpass 17 --abr 128
Language                    : Telugu
Default                     : No
Forced                      : No

Audio #3
ID                          : 4
Format                      : MPEG Audio
Format version              : Version 1
Format profile              : Layer 3
Mode                        : Joint stereo
Mode extension              : MS Stereo
Codec ID                    : A_MPEG/L3
Codec ID/Hint               : MP3
Duration                    : 2 h 3 min
Bit rate mode               : Variable
Bit rate                    : 128 kb/s
Channel(s)                  : 2 channels
Sampling rate               : 48.0 kHz
Frame rate                  : 41.667 FPS (1152 SPF)
Compression mode            : Lossy
Stream size                 : 110 MiB (9%)
Writing library             : LAME3.99r
Encoding settings           : -m j -V 4 -q 3 -lowpass 17 --abr 128
Language                    : Hindi
Default                     : No
Forced                      : No

Audio #4
ID                          : 5
Format                      : AAC
Format/Info                 : Advanced Audio Codec
Format profile              : LC
Codec ID                    : A_AAC
Duration                    : 2 h 3 min
Bit rate                    : 93.7 kb/s
Channel(s)                  : 2 channels
Channel positions           : Front: L R
Sampling rate               : 48.0 kHz
Frame rate                  : 46.875 FPS (1024 SPF)
Compression mode            : Lossy
Stream size                 : 82.4 MiB (7%)
Language                    : English
Default                     : No
Forced                      : No

Text
ID                          : 6
Format                      : UTF-8
Codec ID                    : S_TEXT/UTF8
Codec ID/Info               : UTF-8 Plain Text
Duration                    : 1 h 39 min
Bit rate                    : 60 b/s
Count of elements           : 961
Stream size                 : 44.3 KiB (0%)
Language                    : English
Default                     : Yes
Forced                      : Yes



General
Format                      : Matroska
Format version              : Version 4 / Version 2
File size                   : 1.03 GiB
Duration                    : 1 h 57 min
Overall bit rate mode       : Variable
Overall bit rate            : 1 247 kb/s
Encoded date                : UTC 2018-02-05 07:40:48
Writing application         : mkvmerge v7.8.0 ('River Man') 64bit built on Mar 27 2015 16:31:37
Writing library             : libebml v1.3.1 + libmatroska v1.4.2

Video
ID                          : 1
Format                      : AVC
Format/Info                 : Advanced Video Codec
Format profile              : High@L4
Format settings, CABAC      : Yes
Format settings, RefFrames  : 6 frames
Codec ID                    : V_MPEG4/ISO/AVC
Duration                    : 1 h 57 min
Bit rate                    : 793 kb/s
Width                       : 1 280 pixels
Height                      : 720 pixels
Display aspect ratio        : 16:9
Frame rate mode             : Constant
Frame rate                  : 23.976 (24000/1001) FPS
Color space                 : YUV
Chroma subsampling          : 4:2:0
Bit depth                   : 8 bits
Scan type                   : Progressive
Bits/(Pixel*Frame)          : 0.036
Stream size                 : 669 MiB (64%)
Writing library             : x264 core 120 r2164 da19765
Encoding settings           : cabac=1 / ref=6 / deblock=1:-2:-1 / analyse=0x3:0x133 / me=umh / subme=9 / psy=1 / psy_rd=1.00:0.15 / mixed_ref=1 / me_range=16 / chroma_me=1 / trellis=2 / 8x8dct=1 / cqm=0 / deadzone=21,11 / fast_pskip=1 / chroma_qp_offset=-3 / threads=6 / sliced_threads=0 / nr=0 / decimate=1 / interlaced=0 / bluray_compat=0 / constrained_intra=0 / bframes=3 / b_pyramid=2 / b_adapt=2 / b_bias=0 / direct=3 / weightb=1 / open_gop=0 / weightp=2 / keyint=240 / keyint_min=23 / scenecut=40 / intra_refresh=0 / rc_lookahead=60 / rc=2pass / mbtree=1 / bitrate=793 / ratetol=1.0 / qcomp=0.60 / qpmin=10 / qpmax=51 / qpstep=4 / cplxblur=20.0 / qblur=0.5 / ip_ratio=1.40 / aq=1:1.00
Language                    : English
Default                     : Yes
Forced                      : Yes

Audio #1
ID                          : 2
Format                      : MPEG Audio
Format version              : Version 1
Format profile              : Layer 3
Mode                        : Joint stereo
Mode extension              : MS Stereo
Codec ID                    : A_MPEG/L3
Codec ID/Hint               : MP3
Duration                    : 1 h 57 min
Bit rate mode               : Variable
Bit rate                    : 128 kb/s
Channel(s)                  : 2 channels
Sampling rate               : 48.0 kHz
Frame rate                  : 41.667 FPS (1152 SPF)
Compression mode            : Lossy
Stream size                 : 104 MiB (10%)
Writing library             : LAME3.99r
Encoding settings           : -m j -V 4 -q 3 -lowpass 17 --abr 128
Language                    : Tamil
Default                     : Yes
Forced                      : Yes

Audio #2
ID                          : 3
Format                      : MPEG Audio
Format version              : Version 1
Format profile              : Layer 3
Mode                        : Joint stereo
Mode extension              : MS Stereo
Codec ID                    : A_MPEG/L3
Codec ID/Hint               : MP3
Duration                    : 1 h 57 min
Bit rate mode               : Variable
Bit rate                    : 128 kb/s
Channel(s)                  : 2 channels
Sampling rate               : 48.0 kHz
Frame rate                  : 41.667 FPS (1152 SPF)
Compression mode            : Lossy
Stream size                 : 107 MiB (10%)
Writing library             : LAME3.99r
Encoding settings           : -m j -V 4 -q 3 -lowpass 17 --abr 128
Language                    : Telugu
Default                     : No
Forced                      : No

Audio #3
ID                          : 4
Format                      : MPEG Audio
Format version              : Version 1
Format profile              : Layer 3
Mode                        : Joint stereo
Mode extension              : MS Stereo
Codec ID                    : A_MPEG/L3
Codec ID/Hint               : MP3
Duration                    : 1 h 57 min
Bit rate mode               : Variable
Bit rate                    : 106 kb/s
Nominal bit rate            : 128 kb/s
Channel(s)                  : 2 channels
Sampling rate               : 48.0 kHz
Frame rate                  : 41.667 FPS (1152 SPF)
Compression mode            : Lossy
Stream size                 : 89.7 MiB (9%)
Writing library             : LAME3.99r
Encoding settings           : -m j -V 4 -q 3 -lowpass 17 --abr 128
Language                    : Hindi
Default                     : No
Forced                      : No

Audio #4
ID                          : 5
Format                      : AAC
Format/Info                 : Advanced Audio Codec
Format profile              : LC
Codec ID                    : A_AAC
Duration                    : 1 h 57 min
Bit rate                    : 93.6 kb/s
Channel(s)                  : 2 channels
Channel positions           : Front: L R
Sampling rate               : 48.0 kHz
Frame rate                  : 46.875 FPS (1024 SPF)
Compression mode            : Lossy
Stream size                 : 79.0 MiB (8%)
Language                    : English
Default                     : No
Forced                      : No

Text
ID                          : 6
Format                      : UTF-8
Codec ID                    : S_TEXT/UTF8
Codec ID/Info               : UTF-8 Plain Text
Duration                    : 1 h 47 min
Bit rate                    : 55 b/s
Count of elements           : 1143
Stream size                 : 43.9 KiB (0%)
Language                    : English
Default                     : Yes
Forced                      : Yes



G.I. Joe Duology (2009 - 2013) 720p BluRay [Multi Audio][Hindi+Telugu+Tamil+English]G.I. Joe Duology (2009 - 2013) 720p BluRay [Multi Audio][Hindi+Telugu+Tamil+English]G.I. Joe Duology (2009 - 2013) 720p BluRay [Multi Audio][Hindi+Telugu+Tamil+English]G.I. Joe Duology (2009 - 2013) 720p BluRay [Multi Audio][Hindi+Telugu+Tamil+English]G.I. Joe Duology (2009 - 2013) 720p BluRay [Multi Audio][Hindi+Telugu+Tamil+English]


SINGLE DIRECT FAST LINKS

http://filefloater.com/703/G.I._Joe_Retaliation_(2013)[720p_-_Extended_BDRip_-_[Tamil_+_Telugu_+_Hindi_+_Eng].mkv
http://filefloater.com/704/G.I._Joe_Rise_of_Cobra_(2009)[720p_-_BDRip_-_[Tamil_+_Telugu_+_Hindi_+_Eng].mkv


https://www.heroupload.com/b85b944faf075a51/G.I._Joe_Retaliation_(2013)[720p_-_Extended_BDRip_-_[Tamil_+_Telugu_+_Hindi_+_Eng].mkv
https://www.heroupload.com/3e62a602da9f5b4e/G.I._Joe_Rise_of_Cobra_(2009)[720p_-_BDRip_-_[Tamil_+_Telugu_+_Hindi_+_Eng].mkv




Теги: G

Dear visitor, you are browsing our website as Guest.
We strongly recommend you to register and login to view hidden contents.

Comments:

Add Comments