Set as default Homepage|Bookmark
 
 
» » Funny People (2009) 720p BluRay x264 Esubs [Dual Audio][Hindi+English] KMHD - 18+
Advertise

Funny People (2009) 720p BluRay x264 Esubs [Dual Audio][Hindi+English] KMHD - 18+

Author: wroser on 5-02-2018, 23:10
Funny People (2009) 720p BluRay x264 Esubs [Dual Audio][Hindi+English] KMHD - 18+






General
Format                      : Matroska
Format version              : Version 4 / Version 2
File size                   : 809 MiB
Duration                    : 2 h 32 min
Overall bit rate            : 741 kb/s
Encoded date                : UTC 2018-02-03 18:17:17
Writing application         : mkvmerge v19.0.0 ('Brave Captain') 32-bit
Writing library             : libebml v1.3.5 + libmatroska v1.4.8

Video
ID                          : 1
Format                      : AVC
Format/Info                 : Advanced Video Codec
Format profile              : High@L3.1
Format settings, CABAC      : Yes
Format settings, RefFrames  : 5 frames
Codec ID                    : V_MPEG4/ISO/AVC
Duration                    : 2 h 32 min
Bit rate                    : 511 kb/s
Width                       : 1 088 pixels
Height                      : 592 pixels
Display aspect ratio        : 1.85:1
Frame rate mode             : Constant
Frame rate                  : 23.976 (24000/1001) FPS
Color space                 : YUV
Chroma subsampling          : 4:2:0
Bit depth                   : 8 bits
Scan type                   : Progressive
Bits/(Pixel*Frame)          : 0.033
Stream size                 : 558 MiB (69%)
Writing library             : x264 core 68 r1183M f21daff
Encoding settings           : cabac=1 / ref=5 / deblock=1:-1:-1 / analyse=0x3:0x133 / me=umh / subme=7 / psy_rd=1.0:0.0 / mixed_ref=1 / me_range=16 / chroma_me=1 / trellis=2 / 8x8dct=1 / cqm=0 / deadzone=21,11 / chroma_qp_offset=-2 / threads=6 / nr=0 / decimate=1 / mbaff=0 / bframes=3 / b_pyramid=1 / b_adapt=2 / b_bias=0 / direct=3 / wpredb=1 / keyint=250 / keyint_min=25 / scenecut=40 / rc=2pass / bitrate=511 / ratetol=1.0 / qcomp=0.60 / qpmin=10 / qpmax=51 / qpstep=4 / cplxblur=20.0 / qblur=0.5 / ip_ratio=1.40 / pb_ratio=1.30 / aq=1:1.00
Language                    : English
Default                     : Yes
Forced                      : No

Audio #1
ID                          : 2
Format                      : AC-3
Format/Info                 : Audio Coding 3
Format settings, Endianness : Big
Codec ID                    : A_AC3
Duration                    : 2 h 32 min
Bit rate mode               : Constant
Bit rate                    : 192 kb/s
Channel(s)                  : 2 channels
Channel positions           : Front: L R
Sampling rate               : 48.0 kHz
Frame rate                  : 31.250 FPS (1536 SPF)
Bit depth                   : 16 bits
Compression mode            : Lossy
Stream size                 : 210 MiB (26%)
Language                    : Hindi
Service kind                : Complete Main
Default                     : Yes
Forced                      : Yes

Audio #2
ID                          : 3
Format                      : AAC
Format/Info                 : Advanced Audio Codec
Format profile              : HE-AAC / LC
Codec ID                    : A_AAC
Duration                    : 2 h 32 min
Bit rate                    : 36.0 kb/s
Channel(s)                  : 2 channels
Channel positions           : Front: L R
Sampling rate               : 48.0 kHz / 24.0 kHz
Frame rate                  : 23.438 FPS (1024 SPF)
Compression mode            : Lossy
Delay relative to video     : 6 ms
Stream size                 : 39.3 MiB (5%)
Default                     : No
Forced                      : No

Text
ID                          : 4
Format                      : UTF-8
Codec ID                    : S_TEXT/UTF8
Codec ID/Info               : UTF-8 Plain Text
Duration                    : 20 min 17 s
Bit rate                    : 1 b/s
Count of elements           : 5
Stream size                 : 158 Bytes (0%)
Language                    : English
Default                     : Yes
Forced                      : Yes

Menu
00:00:00.097                : en:00:00:00.097


Funny People (2009) 720p BluRay x264 Esubs [Dual Audio][Hindi+English] KMHD - 18+

SINGLE DIRECT FAST LINKS

https://www.heroupload.com/00b766bd67fe83a2/Funny.people.2009.Bluray.720p.Hindi+English.Dual.Audio.x264-KHD.mkv



http://filefloater.com/cbK/Funny.people.2009.Bluray.720p.Hindi+English.Dual.Audio.x264-KHD.mkv






Теги: Funny

Dear visitor, you are browsing our website as Guest.
We strongly recommend you to register and login to view hidden contents.

Comments:

Add Comments