Set as default Homepage|Bookmark
 
 
» » Forgetting Sarah Marshall (2008) 720p BluRay x264 Esubs [Dual Audio][Hindi+Eng] 18+
Advertise

Forgetting Sarah Marshall (2008) 720p BluRay x264 Esubs [Dual Audio][Hindi+Eng] 18+

Author: wroser on 4-02-2018, 11:51
Forgetting Sarah Marshall (2008) 720p BluRay x264 Esubs [Dual Audio][Hindi+Eng] 18+




General
Format                      : Matroska
Format version              : Version 4 / Version 2
File size                   : 910 MiB
Duration                    : 1 h 57 min
Overall bit rate            : 1 081 kb/s
Encoded date                : UTC 2018-02-03 10:15:21
Writing application         : mkvmerge v19.0.0 ('Brave Captain') 32-bit
Writing library             : libebml v1.3.5 + libmatroska v1.4.8
Cover                       : Yes
Attachments                 : Cover.jpg

Video
ID                          : 1
Format                      : AVC
Format/Info                 : Advanced Video Codec
Format profile              : High 10@L4
Format settings, CABAC      : Yes
Format settings, RefFrames  : 6 frames
Codec ID                    : V_MPEG4/ISO/AVC
Duration                    : 1 h 57 min
Bit rate                    : 565 kb/s
Width                       : 1 280 pixels
Height                      : 688 pixels
Display aspect ratio        : 1.85:1
Frame rate mode             : Constant
Frame rate                  : 23.976 (24000/1001) FPS
Color space                 : YUV
Chroma subsampling          : 4:2:0
Bit depth                   : 10 bits
Scan type                   : Progressive
Bits/(Pixel*Frame)          : 0.027
Stream size                 : 476 MiB (52%)
Writing library             : x264 core 124 r2197 69a0443
Encoding settings           : cabac=1 / ref=6 / deblock=1:-2:-1 / analyse=0x3:0x133 / me=umh / subme=9 / psy=1 / psy_rd=1.00:0.15 / mixed_ref=1 / me_range=16 / chroma_me=1 / trellis=2 / 8x8dct=1 / cqm=0 / deadzone=21,11 / fast_pskip=1 / chroma_qp_offset=-3 / threads=6 / sliced_threads=0 / nr=0 / decimate=1 / interlaced=0 / bluray_compat=0 / constrained_intra=0 / bframes=3 / b_pyramid=2 / b_adapt=2 / b_bias=0 / direct=3 / weightb=1 / open_gop=0 / weightp=2 / keyint=240 / keyint_min=23 / scenecut=40 / intra_refresh=0 / rc_lookahead=60 / rc=2pass / mbtree=1 / bitrate=565 / ratetol=1.0 / qcomp=0.60 / qpmin=0 / qpmax=81 / qpstep=4 / cplxblur=20.0 / qblur=0.5 / ip_ratio=1.40 / aq=1:1.00
Default                     : Yes
Forced                      : Yes

Audio #1
ID                          : 2
Format                      : AAC
Format/Info                 : Advanced Audio Codec
Format profile              : LC
Codec ID                    : A_AAC
Duration                    : 1 h 57 min
Bit rate                    : 129 kb/s
Channel(s)                  : 2 channels
Channel positions           : Front: L R
Sampling rate               : 48.0 kHz
Frame rate                  : 46.875 FPS (1024 SPF)
Compression mode            : Lossy
Delay relative to video     : -83 ms
Stream size                 : 109 MiB (12%)
Language                    : Hindi
Default                     : Yes
Forced                      : Yes

Audio #2
ID                          : 3
Format                      : AC-3
Format/Info                 : Audio Coding 3
Format settings, Endianness : Big
Codec ID                    : A_AC3
Duration                    : 1 h 57 min
Bit rate mode               : Constant
Bit rate                    : 384 kb/s
Channel(s)                  : 6 channels
Channel positions           : Front: L C R, Side: L R, LFE
Sampling rate               : 48.0 kHz
Frame rate                  : 31.250 FPS (1536 SPF)
Bit depth                   : 16 bits
Compression mode            : Lossy
Delay relative to video     : -83 ms
Stream size                 : 323 MiB (36%)
Language                    : English
Service kind                : Complete Main
Default                     : No
Forced                      : No

Text
ID                          : 4
Format                      : UTF-8
Codec ID                    : S_TEXT/UTF8
Codec ID/Info               : UTF-8 Plain Text
Duration                    : 20 min 17 s
Bit rate                    : 1 b/s
Count of elements           : 5
Stream size                 : 158 Bytes (0%)
Language                    : English
Default                     : Yes
Forced                      : No



Forgetting Sarah Marshall (2008) 720p BluRay x264 Esubs [Dual Audio][Hindi+Eng] 18+Forgetting Sarah Marshall (2008) 720p BluRay x264 Esubs [Dual Audio][Hindi+Eng] 18+Forgetting Sarah Marshall (2008) 720p BluRay x264 Esubs [Dual Audio][Hindi+Eng] 18+Forgetting Sarah Marshall (2008) 720p BluRay x264 Esubs [Dual Audio][Hindi+Eng] 18+Forgetting Sarah Marshall (2008) 720p BluRay x264 Esubs [Dual Audio][Hindi+Eng] 18+Forgetting Sarah Marshall (2008) 720p BluRay x264 Esubs [Dual Audio][Hindi+Eng] 18+Forgetting Sarah Marshall (2008) 720p BluRay x264 Esubs [Dual Audio][Hindi+Eng] 18+Forgetting Sarah Marshall (2008) 720p BluRay x264 Esubs [Dual Audio][Hindi+Eng] 18+Forgetting Sarah Marshall (2008) 720p BluRay x264 Esubs [Dual Audio][Hindi+Eng] 18+Forgetting Sarah Marshall (2008) 720p BluRay x264 Esubs [Dual Audio][Hindi+Eng] 18+Forgetting Sarah Marshall (2008) 720p BluRay x264 Esubs [Dual Audio][Hindi+Eng] 18+Forgetting Sarah Marshall (2008) 720p BluRay x264 Esubs [Dual Audio][Hindi+Eng] 18+Forgetting Sarah Marshall (2008) 720p BluRay x264 Esubs [Dual Audio][Hindi+Eng] 18+


SINGLE DIRECT FAST LINKS

https://www.heroupload.com/4ce4af1d1d63ba82/Forgetting.Sarah.Marshall.2008.Bluray.720p.Hindi+English.Dual.Audio.x264-KHD.mkv



http://filefloater.com/cbt/Forgetting.Sarah.Marshall.2008.Bluray.720p.Hindi+English.Dual.Audio.x264-KHD.mkv




Теги: Forgetting

Dear visitor, you are browsing our website as Guest.
We strongly recommend you to register and login to view hidden contents.

Comments:

Add Comments