Set as default Homepage|Bookmark
 
 
» » Sophie's Choice (1982) 720p BluRay x264 Esubs [Dual Audio][Hindi+English] KHD Exclusi
Advertise

Sophie's Choice (1982) 720p BluRay x264 Esubs [Dual Audio][Hindi+English] KHD Exclusi

Author: wroser on 4-02-2018, 11:34
Sophie's Choice (1982) 720p BluRay x264 Esubs [Dual Audio][Hindi+English] KHD Exclusi






General
Format                      : Matroska
Format version              : Version 4 / Version 2
File size                   : 1.06 GiB
Duration                    : 2 h 31 min
Overall bit rate            : 1 006 kb/s
Encoded date                : UTC 2018-02-03 22:51:24
Writing application         : mkvmerge v19.0.0 ('Brave Captain') 32-bit
Writing library             : libebml v1.3.5 + libmatroska v1.4.8

Video
ID                          : 1
Format                      : AVC
Format/Info                 : Advanced Video Codec
Format profile              : High@L4.1
Format settings, CABAC      : Yes
Format settings, RefFrames  : 5 frames
Codec ID                    : V_MPEG4/ISO/AVC
Duration                    : 2 h 31 min
Bit rate                    : 814 kb/s
Width                       : 1 280 pixels
Height                      : 696 pixels
Display aspect ratio        : 1.85:1
Frame rate mode             : Constant
Frame rate                  : 23.976 (24000/1001) FPS
Original frame rate         : 23.976 (23976/1000) FPS
Color space                 : YUV
Chroma subsampling          : 4:2:0
Bit depth                   : 8 bits
Scan type                   : Progressive
Bits/(Pixel*Frame)          : 0.038
Stream size                 : 880 MiB (81%)
Writing library             : x264 core 135 r2 f0c1c53
Encoding settings           : cabac=1 / ref=5 / deblock=1:-1:-1 / analyse=0x3:0x133 / me=umh / subme=9 / psy=1 / psy_rd=1.00:0.15 / mixed_ref=1 / me_range=24 / chroma_me=1 / trellis=2 / 8x8dct=1 / cqm=0 / deadzone=21,11 / fast_pskip=0 / chroma_qp_offset=-3 / threads=36 / lookahead_threads=3 / sliced_threads=0 / nr=0 / decimate=1 / interlaced=0 / bluray_compat=0 / constrained_intra=0 / bframes=3 / b_pyramid=2 / b_adapt=2 / b_bias=0 / direct=3 / weightb=1 / open_gop=0 / weightp=2 / keyint=250 / keyint_min=23 / scenecut=40 / intra_refresh=0 / rc_lookahead=60 / rc=2pass / mbtree=1 / bitrate=814 / ratetol=1.0 / qcomp=0.60 / qpmin=0 / qpmax=69 / qpstep=4 / cplxblur=20.0 / qblur=0.5 / vbv_maxrate=31250 / vbv_bufsize=31250 / nal_hrd=none / ip_ratio=1.40 / aq=1:1.00
Default                     : Yes
Forced                      : No
Color range                 : Limited
Color primaries             : BT.709
Matrix coefficients         : BT.709

Audio #1
ID                          : 2
Format                      : AAC
Format/Info                 : Advanced Audio Codec
Format profile              : HE-AAC / LC
Codec ID                    : A_AAC
Duration                    : 2 h 31 min
Bit rate                    : 96.0 kb/s
Channel(s)                  : 2 channels
Channel positions           : Front: L R
Sampling rate               : 48.0 kHz / 24.0 kHz
Frame rate                  : 23.438 FPS (1024 SPF)
Compression mode            : Lossy
Delay relative to video     : -83 ms
Stream size                 : 104 MiB (10%)
Title                       : Hindi {KatmovieHD.info}
Language                    : Hindi
Default                     : Yes
Forced                      : Yes

Audio #2
ID                          : 3
Format                      : AAC
Format/Info                 : Advanced Audio Codec
Format profile              : LC
Codec ID                    : A_AAC
Duration                    : 2 h 31 min
Bit rate                    : 93.9 kb/s
Channel(s)                  : 2 channels
Channel positions           : Front: L R
Sampling rate               : 48.0 kHz
Frame rate                  : 46.875 FPS (1024 SPF)
Compression mode            : Lossy
Delay relative to video     : -83 ms
Stream size                 : 102 MiB (9%)
Language                    : English
Default                     : No
Forced                      : No

Text
ID                          : 4
Format                      : UTF-8
Codec ID                    : S_TEXT/UTF8
Codec ID/Info               : UTF-8 Plain Text
Duration                    : 20 min 17 s
Bit rate                    : 1 b/s
Count of elements           : 5
Stream size                 : 158 Bytes (0%)
Default                     : Yes
Forced                      : No


Sophie's Choice (1982) 720p BluRay x264 Esubs [Dual Audio][Hindi+English] KHD Exclusi


SINGLE DIRECT FAST LINKS

https://www.heroupload.com/315e513c80a1d77c/Sophies.Choice.1982.Bluray.720p.Hindi+English.Dual.Audio.x264-KHD.mkv



http://filefloater.com/cbx/Sophies.Choice.1982.Bluray.720p.Hindi+English.Dual.Audio.x264-KHD.mkv





Теги: Sophie

Dear visitor, you are browsing our website as Guest.
We strongly recommend you to register and login to view hidden contents.

Comments:

Add Comments