Set as default Homepage|Bookmark
 
 
» » Criminal (2016) Hindi - 720p - BluRay - x264 - DD5.1 - AbhiSona
Advertise

Criminal (2016) Hindi - 720p - BluRay - x264 - DD5.1 - AbhiSona

Author: wroser on 4-02-2018, 11:28
Criminal (2016) Hindi - 720p - BluRay - x264 - DD5.1 - AbhiSona





General
Format                      : Matroska
Format version              : Version 4 / Version 2
File size                   : 1.07 GiB
Duration                    : 1 h 53 min
Overall bit rate            : 1 349 kb/s
Encoded date                : UTC 2018-02-03 12:30:35
Writing application         : mkvmerge v19.0.0 ('Brave Captain') 32-bit
Writing library             : libebml v1.3.5 + libmatroska v1.4.8

Video
ID                          : 1
Format                      : AVC
Format/Info                 : Advanced Video Codec
Format profile              : High@L4.1
Format settings, CABAC      : Yes
Format settings, RefFrames  : 4 frames
Codec ID                    : V_MPEG4/ISO/AVC
Duration                    : 1 h 53 min
Bit rate                    : 900 kb/s
Width                       : 1 280 pixels
Height                      : 538 pixels
Display aspect ratio        : 2.40:1
Original display aspect rat : 2.40:1
Frame rate mode             : Constant
Frame rate                  : 23.976 (24000/1001) FPS
Color space                 : YUV
Chroma subsampling          : 4:2:0
Bit depth                   : 8 bits
Scan type                   : Progressive
Bits/(Pixel*Frame)          : 0.055
Stream size                 : 731 MiB (67%)
Writing library             : x264 core 148
Encoding settings           : cabac=1 / ref=4 / deblock=1:-1:-1 / analyse=0x3:0x133 / me=umh / subme=9 / psy=1 / psy_rd=1.00:0.15 / mixed_ref=1 / me_range=24 / chroma_me=1 / trellis=2 / 8x8dct=1 / cqm=0 / deadzone=21,11 / fast_pskip=0 / chroma_qp_offset=-3 / threads=12 / lookahead_threads=1 / sliced_threads=0 / nr=0 / decimate=1 / interlaced=0 / bluray_compat=0 / constrained_intra=0 / bframes=3 / b_pyramid=2 / b_adapt=2 / b_bias=0 / direct=3 / weightb=1 / open_gop=0 / weightp=2 / keyint=250 / keyint_min=23 / scenecut=40 / intra_refresh=0 / rc_lookahead=60 / rc=2pass / mbtree=1 / bitrate=900 / ratetol=1.0 / qcomp=0.60 / qpmin=0 / qpmax=69 / qpstep=4 / cplxblur=20.0 / qblur=0.5 / vbv_maxrate=31250 / vbv_bufsize=31250 / nal_hrd=none / filler=0 / ip_ratio=1.40 / aq=1:1.00
Default                     : Yes
Forced                      : No

Audio
ID                          : 2
Format                      : AC-3
Format/Info                 : Audio Coding 3
Format settings, Endianness : Big
Codec ID                    : A_AC3
Duration                    : 1 h 53 min
Bit rate mode               : Constant
Bit rate                    : 448 kb/s
Channel(s)                  : 6 channels
Channel positions           : Front: L C R, Side: L R, LFE
Sampling rate               : 48.0 kHz
Frame rate                  : 31.250 FPS (1536 SPF)
Bit depth                   : 16 bits
Compression mode            : Lossy
Stream size                 : 364 MiB (33%)
Title                       : AbhiSona
Language                    : Hindi
Service kind                : Complete Main
Default                     : Yes
Forced                      : No


Criminal (2016) Hindi - 720p - BluRay - x264 - DD5.1 - AbhiSona

SINGLE DIRECT FAST LINKS
https://www.heroupload.com/f58ac86a60f5063b/Criminal.2016.720p.BluRay.x264.Hindi.DD_5.1-AbhiSona.mkv



http://filefloater.com/cbs/Criminal.2016.720p.BluRay.x264.Hindi.DD_5.1-AbhiSona.mkv



Теги: Criminal

Dear visitor, you are browsing our website as Guest.
We strongly recommend you to register and login to view hidden contents.

Comments:

Add Comments