Set as default Homepage|Bookmark
 
 
» » Star Wars The Last Jedi (2017) 720p HDTC x264 [Dual Audio][Hindi (Cleaned)+English]
Advertise

Star Wars The Last Jedi (2017) 720p HDTC x264 [Dual Audio][Hindi (Cleaned)+English]

Author: wroser on 30-01-2018, 12:46
Star Wars The Last Jedi (2017) 720p HDTC x264 [Dual Audio][Hindi (Cleaned)+English]










Format : AVC


Format/Info : Advanced Video Codec


Format profile : High@L4.1


Format settings : CABAC / 8 Ref Frames


Format settings, CABAC : Yes


Format settings, RefFrames : 8 frames


Codec ID : V_MPEG4/ISO/AVC


Duration : 2 h 27 min


Bit rate : 999 kb/s


Width : 1 280 pixels


Height : 616 pixels


Display aspect ratio : 2.078


Frame rate mode : Constant


Frame rate : 30.000 FPS


Color space : YUV


Chroma subsampling : 4:2:0


Bit depth : 8 bits


Scan type : Progressive


Bits/(Pixel*Frame) : 0.042


Stream size : 1.03 GiB (81%)


Writing library : x264 core 148 r2638 7599210


Encoding settings : cabac=1 / ref=8 / deblock=1:0:0 / analyse=0x3:0x113 / me=umh / subme=9 / psy=1 / psy_rd=1.00:0.00 / mixed_ref=1 / me_range=16 / chroma_me=1 / trellis=2 / 8x8dct=1 / cqm=0 / deadzone=21,11 / fast_pskip=1 / chroma_qp_offset=-2 / threads=12 / lookahead_threads=1 / sliced_threads=0 / nr=0 / decimate=1 / interlaced=0 / bluray_compat=0 / constrained_intra=0 / bframes=3 / b_pyramid=2 / b_adapt=1 / b_bias=0 / direct=3 / weightb=1 / open_gop=0 / weightp=2 / keyint=300 / keyint_min=30 / scenecut=40 / intra_refresh=0 / rc_lookahead=40 / rc=2pass / mbtree=1 / bitrate=999 / ratetol=1.0 / qcomp=0.60 / qpmin=0 / qpmax=69 / qpstep=4 / cplxblur=20.0 / qblur=0.5 / vbv_maxrate=62500 / vbv_bufsize=78125 / nal_hrd=none / filler=0 / ip_ratio=1.40 / aq=1:1.00


Default : Yes


Forced : No


Color range : Limited


Color primaries : Generic film


Transfer characteristics : BT.709


Matrix coefficients : BT.709



Audio #1


ID : 2


Format : AAC


Format/Info : Advanced Audio Codec


Format profile : LC


Codec ID : A_AAC-2


Duration : 2 h 27 min


Bit rate : 126 kb/s


Channel(s) : 2 channels


Channel positions : Front: L R


Sampling rate : 44.1 kHz


Frame rate : 43.066 FPS (1024 SPF)


Compression mode : Lossy


Stream size : 133 MiB (10%)


Language : Hindi


Default : Yes


Forced : Yes



Audio #2


ID : 3


Format : AAC


Format/Info : Advanced Audio Codec


Format profile : HE-AAC / LC


Format settings : Explicit


Codec ID : A_AAC-2


Duration : 2 h 27 min


Bit rate : 100.0 kb/s


Channel(s) : 2 channels


Channel positions : Front: L R


Sampling rate : 44.1 kHz / 22.05 kHz


Frame rate : 21.533 FPS (1024 SPF)


Compression mode : Lossy


Delay relative to video : 33 ms


Stream size : 106 MiB (8%)


Language : English


Default : No


Forced : No 



Star Wars The Last Jedi (2017) 720p HDTC x264 [Dual Audio][Hindi (Cleaned)+English]
Star Wars The Last Jedi (2017) 720p HDTC x264 [Dual Audio][Hindi (Cleaned)+English]
Star Wars The Last Jedi (2017) 720p HDTC x264 [Dual Audio][Hindi (Cleaned)+English]
Star Wars The Last Jedi (2017) 720p HDTC x264 [Dual Audio][Hindi (Cleaned)+English]
Star Wars The Last Jedi (2017) 720p HDTC x264 [Dual Audio][Hindi (Cleaned)+English]
Star Wars The Last Jedi (2017) 720p HDTC x264 [Dual Audio][Hindi (Cleaned)+English]
Star Wars The Last Jedi (2017) 720p HDTC x264 [Dual Audio][Hindi (Cleaned)+English]
Star Wars The Last Jedi (2017) 720p HDTC x264 [Dual Audio][Hindi (Cleaned)+English]


SINGLE DIRECT FAST LINKS

http://filefloater.com/9xb/Star_Wars_The_Last_Jedi_(2017)_720p_HDTC_x264_[Dual-Audio][Hindi_(Cleaned)_-_English]_-_DHB.mkv


https://www.heroupload.com/ee021d8d553de2bd/Star_Wars_The_Last_Jedi_(2017)_720p_HDTC_x264_[Dual-Audio][Hindi_(Cleaned)_-_English]_-_DHB.mkv



Теги: Star

Dear visitor, you are browsing our website as Guest.
We strongly recommend you to register and login to view hidden contents.

Comments:

Add Comments
Reply
  • Group: Guests
  • ICQ:
  • Registration: --
  • Status:
  • 0 Comment
  • 0 Article
^
Wow!What an amazing and interesting movie,An essay writing services would be the option to market and advertise this amazing movie.Good Job.