Set as default Homepage|Bookmark
 
 
» » Venom (2018) Hindi - 720p - HD-TS - x264 - [MW]
Advertise

Venom (2018) Hindi - 720p - HD-TS - x264 - [MW]

Author: wroser on 6-10-2018, 09:51
Venom (2018) Hindi - 720p - HD-TS - x264 - [MW]





General
Format : Matroska
Format version : Version 4 / Version 2
File size : 1.05 GiB
Duration : 1 h 32 min
Overall bit rate : 1 632 kb/s

Video
ID : 1
Format : AVC
Format/Info : Advanced Video Codec
Format profile : High@L4.1
Format settings : CABAC / 4 Ref Frames
Format settings, CABAC : Yes
Format settings, RefFrames : 4 frames
Codec ID : V_MPEG4/ISO/AVC
Duration : 1 h 32 min
Bit rate : 1 500 kb/s
Width : 1 280 pixels
Height : 544 pixels
Display aspect ratio : 2.35:1
Frame rate mode : Constant
Frame rate : 23.976 (24000/1001) FPS
Color space : YUV
Chroma subsampling : 4:2:0
Bit depth : 8 bits
Scan type : Progressive
Bits/(Pixel*Frame) : 0.090
Stream size : 989 MiB (92%)
Writing library : x264 core 155 r2901 7d0ff22
Default : Yes
Forced : No

Audio
ID : 2
Format : AAC
Format/Info : Advanced Audio Codec
Format profile : LC
Codec ID : A_AAC-2
Duration : 1 h 31 min
Bit rate : 128 kb/s
Channel(s) : 2 channels
Channel positions : Front: L R
Sampling rate : 48.0 kHz
Frame rate : 46.875 FPS (1024 SPF)
Compression mode : Lossy
Stream size : 84.3 MiB (8%)
Language : Hindi
Default : Yes
Forced : No


Venom (2018) Hindi - 720p - HD-TS - x264 - [MW]Venom (2018) Hindi - 720p - HD-TS - x264 - [MW]Venom (2018) Hindi - 720p - HD-TS - x264 - [MW]Venom (2018) Hindi - 720p - HD-TS - x264 - [MW]Venom (2018) Hindi - 720p - HD-TS - x264 - [MW]Venom (2018) Hindi - 720p - HD-TS - x264 - [MW]
SINGLE DIRECT FAST LINKS

http://www.heroupload.us/76c7775f6ab47672/Venom.2018.720p.HD-TS.Hindi.Dubbed.x264-MW.mkv



http://filefloater.com/310x/Venom.2018.720p.HD-TS.Hindi.Dubbed.x264-MW.mkv





Buy Premium From My Links & Support Me

Теги: Venom

Dear visitor, you are browsing our website as Guest.
We strongly recommend you to register and login to view hidden contents.

Comments:

Add Comments
Reply
  • Group: Guests
  • ICQ:
  • Registration: --
  • Status:
  • 0 Comment
  • 0 Article
^
Incredible posting this is from you. I am really and truly thrilled to read this marvelous post. You've really impressed me today. I hope you'll continue to do so! <a href="https://www.fiverr.com/aftab_seo/provide-35-niche-relevant-approved-h
igh-quality-blog-comment">niche related backlinks</a>

Incredible posting this is from you. I am really and truly thrilled to read this marvelous post. You've really impressed me today. I hope you'll continue to do so! niche related backlinks
Reply
  • Group: Guests
  • ICQ:
  • Registration: --
  • Status:
  • 0 Comment
  • 0 Article
^
Responsive AngularJS Admin Theme is the best theme for the readers. I wish to say all myassignmenthelp students to read this blog. It will be a best idea for all the students and the readers.
Reply
  • Group: Guests
  • ICQ:
  • Registration: --
  • Status:
  • 0 Comment
  • 0 Article
^
Venom is the name of a movie which is now available in dubbing. We can watch this movie and ask the people to watch it if they need to know about the value of cheap term paper with the help of this movie. I like this blog so much.
Reply
  • Group: Guests
  • ICQ:
  • Registration: --
  • Status:
  • 0 Comment
  • 0 Article
^
Discord servers also has several text chat channels as well as personal messages between users. This is great when you can not or do not want to use voice communication channels to chat.