Set as default Homepage|Bookmark
 
 
» » Ant-Man and the Wasp (2018) 1080p HDRip x264 [Multi Line Audio][Hindi+Telugu+Tam+Eng]
Advertise

Ant-Man and the Wasp (2018) 1080p HDRip x264 [Multi Line Audio][Hindi+Telugu+Tam+Eng]

Author: wroser on 3-10-2018, 03:57
Ant-Man and the Wasp (2018) 1080p HDRip x264 [Multi Line Audio][Hindi+Telugu+Tam+Eng]





Format                      : Matroska
Format version              : Version 4 / Version 2
File size                   : 1.87 GiB
Duration                    : 1 h 58 min
Overall bit rate mode       : Variable
Overall bit rate            : 2 262 kb/s
Encoded date                : UTC 2018-10-02 06:38:36
Writing application         : mkvmerge v7.1.0 ('Good Love') 32bit built on Jul 27 2014 12:59:18
Writing library             : libebml v1.3.0 + libmatroska v1.4.1

Video
ID                          : 1
Format                      : AVC
Format/Info                 : Advanced Video Codec
Format profile              : High@L4
Format settings, CABAC      : Yes
Format settings, RefFrames  : 4 frames
Codec ID                    : V_MPEG4/ISO/AVC
Duration                    : 1 h 58 min
Bit rate                    : 1 896 kb/s
Width                       : 1 920 pixels
Height                      : 800 pixels
Display aspect ratio        : 2.40:1
Frame rate mode             : Constant
Frame rate                  : 23.976 (24000/1001) FPS
Color space                 : YUV
Chroma subsampling          : 4:2:0
Bit depth                   : 8 bits
Scan type                   : Progressive
Bits/(Pixel*Frame)          : 0.051
Stream size                 : 1.56 GiB (84%)
Writing library             : x264 core 155 r2901 7d0ff22
Encoding settings           : cabac=1 / ref=3 / deblock=1:0:0 / analyse=0x3:0x113 / me=hex / subme=7 / psy=1 / psy_rd=1.00:0.00 / mixed_ref=1 / me_range=16 / chroma_me=1 / trellis=1 / 8x8dct=1 / cqm=0 / deadzone=21,11 / fast_pskip=1 / chroma_qp_offset=-2 / threads=25 / lookahead_threads=4 / sliced_threads=0 / nr=0 / decimate=1 / interlaced=0 / bluray_compat=0 / constrained_intra=0 / bframes=3 / b_pyramid=2 / b_adapt=1 / b_bias=0 / direct=1 / weightb=1 / open_gop=0 / weightp=2 / keyint=240 / keyint_min=23 / scenecut=40 / intra_refresh=0 / rc_lookahead=40 / rc=2pass / mbtree=1 / bitrate=1896 / ratetol=1.0 / qcomp=0.60 / qpmin=0 / qpmax=69 / qpstep=4 / cplxblur=20.0 / qblur=0.5 / ip_ratio=1.40 / aq=1:1.00
Language                    : English
Default                     : Yes
Forced                      : No

Audio #1
ID                          : 2
Format                      : MPEG Audio
Format version              : Version 1
Format profile              : Layer 3
Mode                        : Joint stereo
Mode extension              : MS Stereo
Codec ID                    : A_MPEG/L3
Codec ID/Hint               : MP3
Duration                    : 1 h 58 min
Bit rate mode               : Variable
Bit rate                    : 96.0 kb/s
Channel(s)                  : 2 channels
Sampling rate               : 44.1 kHz
Frame rate                  : 38.281 FPS (1152 SPF)
Compression mode            : Lossy
Stream size                 : 80.8 MiB (4%)
Writing library             : LAME3.99r
Encoding settings           : -m j -V 4 -q 3 -lowpass 15.1 --abr 96
Language                    : Telugu
Default                     : Yes
Forced                      : No

Audio #2
ID                          : 3
Format                      : MPEG Audio
Format version              : Version 1
Format profile              : Layer 3
Mode                        : Joint stereo
Mode extension              : MS Stereo
Codec ID                    : A_MPEG/L3
Codec ID/Hint               : MP3
Duration                    : 1 h 58 min
Bit rate mode               : Variable
Bit rate                    : 84.1 kb/s
Nominal bit rate            : 96.0 kb/s
Channel(s)                  : 2 channels
Sampling rate               : 44.1 kHz
Frame rate                  : 38.281 FPS (1152 SPF)
Compression mode            : Lossy
Stream size                 : 71.0 MiB (4%)
Writing library             : LAME3.99r
Encoding settings           : -m j -V 4 -q 3 -lowpass 15.1 --abr 96
Language                    : Tamil
Default                     : No
Forced                      : No

Audio #3
ID                          : 4
Format                      : MPEG Audio
Format version              : Version 1
Format profile              : Layer 3
Mode                        : Joint stereo
Mode extension              : MS Stereo
Codec ID                    : A_MPEG/L3
Codec ID/Hint               : MP3
Duration                    : 1 h 58 min
Bit rate mode               : Variable
Bit rate                    : 96.0 kb/s
Channel(s)                  : 2 channels
Sampling rate               : 44.1 kHz
Frame rate                  : 38.281 FPS (1152 SPF)
Compression mode            : Lossy
Stream size                 : 83.3 MiB (4%)
Writing library             : LAME3.99r
Encoding settings           : -m j -V 4 -q 3 -lowpass 15.1 --abr 96
Language                    : Hindi
Default                     : No
Forced                      : No

Audio #4
ID                          : 5
Format                      : MPEG Audio
Format version              : Version 1
Format profile              : Layer 3
Mode                        : Joint stereo
Mode extension              : MS Stereo
Codec ID                    : A_MPEG/L3
Codec ID/Hint               : MP3
Duration                    : 1 h 58 min
Bit rate mode               : Variable
Bit rate                    : 83.2 kb/s
Nominal bit rate            : 96.0 kb/s
Channel(s)                  : 2 channels
Sampling rate               : 44.1 kHz
Frame rate                  : 38.281 FPS (1152 SPF)
Compression mode            : Lossy
Stream size                 : 70.3 MiB (4%)
Writing library             : LAME3.99r
Encoding settings           : -m j -V 4 -q 3 -lowpass 15.1 --abr 96
Language                    : English
Default                     : No
Forced                      : No

Text
ID                          : 6
Format                      : UTF-8
Codec ID                    : S_TEXT/UTF8
Codec ID/Info               : UTF-8 Plain Text
Duration                    : 1 h 50 min
Bit rate                    : 65 b/s
Count of elements           : 1930
Stream size                 : 53.5 KiB (0%)
Language                    : English
Default                     : Yes
Forced                      : No



Ant-Man and the Wasp (2018) 1080p HDRip x264 [Multi Line Audio][Hindi+Telugu+Tam+Eng]Ant-Man and the Wasp (2018) 1080p HDRip x264 [Multi Line Audio][Hindi+Telugu+Tam+Eng]Ant-Man and the Wasp (2018) 1080p HDRip x264 [Multi Line Audio][Hindi+Telugu+Tam+Eng]Ant-Man and the Wasp (2018) 1080p HDRip x264 [Multi Line Audio][Hindi+Telugu+Tam+Eng]Ant-Man and the Wasp (2018) 1080p HDRip x264 [Multi Line Audio][Hindi+Telugu+Tam+Eng]


SINGLE DIRECT FAST LINKS
http://www.heroupload.us/dc381f6d941d928d/Ant-Man.and.the.Wasp.2018.HDRip.1080p.Line.Telugu+Tamil+Hindi+English.mkv
http://www.heroupload.us/697e3f53c0a5aed0/Ant-Man.and.the.Wasp.2018.HDRip.1080p.Line.Telugu+Tamil+Hindi+English.srt



http://filefloater.com/30WT/Ant-Man.and.the.Wasp.2018.HDRip.1080p.Line.Telugu+Tamil+Hindi+English.mkv
http://filefloater.com/2AW0/Ant-Man.and.the.Wasp.2018.HDRip.1080p.Line.Telugu+Tamil+Hindi+English.srt



Buy Premium From My Links & Support Me

Теги: Ant

Dear visitor, you are browsing our website as Guest.
We strongly recommend you to register and login to view hidden contents.

Comments:

Add Comments
Reply
  • Alexis

  • 14 October 2018 10:42
  • Group: Guests
  • ICQ:
  • Registration: --
  • Status:
  • 0 Comment
  • 0 Article
^
The old age persons require more attention, love, and care but unluckily the young ones fail to do so due to lack of time and their busy hectic routine. In this respect. This essay .com is offering the best services to take care of the loved ones and provide them with the basic necessities of life.
Reply
  • muener

  • 14 October 2018 14:58
  • Group: Guests
  • ICQ:
  • Registration: --
  • Status:
  • 0 Comment
  • 0 Article
^
This is such a great resource that you are providing and you give it away for free. I love seeing blog that understand the value of providing a quality resource for free. my gmail login