Set as default Homepage|Bookmark
 
 
» » Hotel Transylvania 3 (2018) 720p HDRip x264 [Multi Line Audios][Hindi+Tamil+English]
Advertise

Hotel Transylvania 3 (2018) 720p HDRip x264 [Multi Line Audios][Hindi+Tamil+English]

Author: wroser on 17-09-2018, 14:02
Hotel Transylvania 3 (2018) 720p HDRip x264 [Multi Line Audios][Hindi+Tamil+English]




Format                      : Matroska
Format version              : Version 4 / Version 2
File size                   : 790 MiB
Duration                    : 1 h 32 min
Overall bit rate mode       : Variable
Overall bit rate            : 1 190 kb/s
Encoded date                : UTC 2018-09-16 15:19:29
Writing application         : mkvmerge v7.1.0 ('Good Love') 32bit built on Jul 27 2014 12:59:18
Writing library             : libebml v1.3.0 + libmatroska v1.4.1

Video
ID                          : 1
Format                      : AVC
Format/Info                 : Advanced Video Codec
Format profile              : High@L3.1
Format settings, CABAC      : Yes
Format settings, RefFrames  : 4 frames
Codec ID                    : V_MPEG4/ISO/AVC
Duration                    : 1 h 32 min
Bit rate                    : 912 kb/s
Width                       : 1 280 pixels
Height                      : 720 pixels
Display aspect ratio        : 16:9
Frame rate mode             : Constant
Frame rate                  : 30.000 FPS
Color space                 : YUV
Chroma subsampling          : 4:2:0
Bit depth                   : 8 bits
Scan type                   : Progressive
Bits/(Pixel*Frame)          : 0.033
Stream size                 : 605 MiB (77%)
Writing library             : x264 core 155 r2901 7d0ff22
Encoding settings           : cabac=1 / ref=3 / deblock=1:0:0 / analyse=0x3:0x113 / me=hex / subme=7 / psy=1 / psy_rd=1.00:0.00 / mixed_ref=1 / me_range=16 / chroma_me=1 / trellis=1 / 8x8dct=1 / cqm=0 / deadzone=21,11 / fast_pskip=1 / chroma_qp_offset=-2 / threads=22 / lookahead_threads=3 / sliced_threads=0 / nr=0 / decimate=1 / interlaced=0 / bluray_compat=0 / constrained_intra=0 / bframes=3 / b_pyramid=2 / b_adapt=1 / b_bias=0 / direct=1 / weightb=1 / open_gop=0 / weightp=2 / keyint=300 / keyint_min=30 / scenecut=40 / intra_refresh=0 / rc_lookahead=40 / rc=2pass / mbtree=1 / bitrate=912 / ratetol=1.0 / qcomp=0.60 / qpmin=0 / qpmax=69 / qpstep=4 / cplxblur=20.0 / qblur=0.5 / ip_ratio=1.40 / aq=1:1.00
Language                    : English
Default                     : Yes
Forced                      : No

Audio #1
ID                          : 2
Format                      : MPEG Audio
Format version              : Version 1
Format profile              : Layer 3
Mode                        : Joint stereo
Mode extension              : MS Stereo
Codec ID                    : A_MPEG/L3
Codec ID/Hint               : MP3
Duration                    : 1 h 32 min
Bit rate mode               : Variable
Bit rate                    : 86.6 kb/s
Nominal bit rate            : 96.0 kb/s
Channel(s)                  : 2 channels
Sampling rate               : 44.1 kHz
Frame rate                  : 38.281 FPS (1152 SPF)
Compression mode            : Lossy
Stream size                 : 57.5 MiB (7%)
Writing library             : LAME3.99r
Encoding settings           : -m j -V 4 -q 3 -lowpass 15.1 --abr 96
Language                    : Tamil
Default                     : Yes
Forced                      : No

Audio #2
ID                          : 3
Format                      : MPEG Audio
Format version              : Version 1
Format profile              : Layer 3
Mode                        : Joint stereo
Mode extension              : MS Stereo
Codec ID                    : A_MPEG/L3
Codec ID/Hint               : MP3
Duration                    : 1 h 32 min
Bit rate mode               : Variable
Bit rate                    : 96.0 kb/s
Channel(s)                  : 2 channels
Sampling rate               : 44.1 kHz
Frame rate                  : 38.281 FPS (1152 SPF)
Compression mode            : Lossy
Stream size                 : 61.6 MiB (8%)
Writing library             : LAME3.99r
Encoding settings           : -m j -V 4 -q 3 -lowpass 15.1 --abr 96
Language                    : Hindi
Default                     : No
Forced                      : No

Audio #3
ID                          : 4
Format                      : MPEG Audio
Format version              : Version 1
Format profile              : Layer 3
Mode                        : Joint stereo
Mode extension              : MS Stereo
Codec ID                    : A_MPEG/L3
Codec ID/Hint               : MP3
Duration                    : 1 h 32 min
Bit rate mode               : Variable
Bit rate                    : 96.0 kb/s
Channel(s)                  : 2 channels
Sampling rate               : 48.0 kHz
Frame rate                  : 41.667 FPS (1152 SPF)
Compression mode            : Lossy
Stream size                 : 63.5 MiB (8%)
Writing library             : LAME3.99r
Encoding settings           : -m j -V 4 -q 3 -lowpass 15.1 --abr 96
Language                    : English
Default                     : No
Forced                      : No



Hotel Transylvania 3 (2018) 720p HDRip x264 [Multi Line Audios][Hindi+Tamil+English]Hotel Transylvania 3 (2018) 720p HDRip x264 [Multi Line Audios][Hindi+Tamil+English]Hotel Transylvania 3 (2018) 720p HDRip x264 [Multi Line Audios][Hindi+Tamil+English]Hotel Transylvania 3 (2018) 720p HDRip x264 [Multi Line Audios][Hindi+Tamil+English]Hotel Transylvania 3 (2018) 720p HDRip x264 [Multi Line Audios][Hindi+Tamil+English]Hotel Transylvania 3 (2018) 720p HDRip x264 [Multi Line Audios][Hindi+Tamil+English]
SINGLE DIRECT FAST LINKS

http://www.heroupload.us/2ef3c725a4bb32dc/Hotel.Transylvania.3.2018.HDRip.720p.Line.Auds.Tamil+Hindi+English.mkv



http://filefloater.com/2AQn/Hotel.Transylvania.3.2018.HDRip.720p.Line.Auds.Tamil+Hindi+English.mkv



Buy Premium From My Links & Support Me

Теги: Hotel

Dear visitor, you are browsing our website as Guest.
We strongly recommend you to register and login to view hidden contents.

Comments:

Add Comments
Reply
  • Volverine

  • 7 October 2018 15:10
  • Group: Guests
  • ICQ:
  • Registration: --
  • Status:
  • 0 Comment
  • 0 Article
^
I additionally love this anime books on the grounds that in everything about books he give incredible messages. Indeed, even his composition style stuns me and pay someone to write my paper always perform good task and moves me to peruse books particularly of his so a debt of gratitude is in order for sharing this post.
Reply
  • Group: Guests
  • ICQ:
  • Registration: --
  • Status:
  • 0 Comment
  • 0 Article
^
I have read your article, it is very informative and helpful to me. Thank you for sharing great information to us. Latest Viral News, LifestyleLatest Naija Music, Lyrics, and Entertainment Latest Lifestyle, Relationship Advice, Health & fittnes