Set as default Homepage|Bookmark
 
 
» Articles for August 2018 Year
Advertise
Sort articles by: Date | Most Rates | Most Views | Comments | Alphabet

Bhavesh Joshi Super Hero (2018) 720p - WEB-DL - AVC - AAC-Team TT Exclusive

Author: wroser on 15-08-2018, 20:51
Bhavesh Joshi Super Hero (2018) 720p - WEB-DL - AVC - AAC-Team TT Exclusive

Format                      : MPEG-4
Format profile              : Base Media
Codec ID                    : isom (isom/iso2/avc1/mp41)
File size                   : 2.11 GiB
Duration                    : 2 h 25 min
Overall bit rate mode       : Variable
Overall bit rate            : 2 066 kb/s
Writing application         : Lavf56.40.101

Video
ID                          : 1
Format                      : AVC
Format/Info                 : Advanced Video Codec
Format profile              : Main@L3.1
Format settings, CABAC      : Yes
Format settings, RefFrames  : 1 frame
Format settings, GOP        : M=1, N=100
Codec ID                    : avc1
Codec ID/Info               : Advanced Video Coding
Duration                    : 2 h 25 min
Bit rate mode               : Constant
Bit rate                    : 2 000 kb/s
Width                       : 1 280 pixels
Height                      : 720 pixels
Display aspect ratio        : 16:9
Frame rate mode             : Constant
Frame rate                  : 25.000 FPS
Color space                 : YUV
Chroma subsampling          : 4:2:0
Bit depth                   : 8 bits
Scan type                   : Progressive
Bits/(Pixel*Frame)          : 0.087
Stream size                 : 2.04 GiB (97%)

Audio
ID                          : 2
Format                      : AAC
Format/Info                 : Advanced Audio Codec
Format profile              : LC
Codec ID                    : 40
Duration                    : 2 h 25 min
Bit rate mode               : Variable
Bit rate                    : 61.4 kb/s
Maximum bit rate            : 64.1 kb/s
Channel(s)                  : 2 channels
Channel positions           : Front: L R
Sampling rate               : 48.0 kHz
Frame rate                  : 46.875 FPS (1024 SPF)
Compression mode            : Lossy
Stream size                 : 64.1 MiB (3%)
Default                     : Yes
Alternate group             : 1


Bhavesh Joshi Super Hero (2018) 720p - WEB-DL - AVC - AAC-Team TT ExclusiveBhavesh Joshi Super Hero (2018) 720p - WEB-DL - AVC - AAC-Team TT ExclusiveBhavesh Joshi Super Hero (2018) 720p - WEB-DL - AVC - AAC-Team TT ExclusiveBhavesh Joshi Super Hero (2018) 720p - WEB-DL - AVC - AAC-Team TT ExclusiveBhavesh Joshi Super Hero (2018) 720p - WEB-DL - AVC - AAC-Team TT Exclusive

SINGLE DIRECT FAST LINKS
http://www.heroupload.us/339a0ad2552dc71f/Bhavesh.Joshi.Super.Hero.2018.Hindi.720p.WEB-DL.AVC.AAC-Team.Telly.Exclusive.mp4


http://filefloater.com/Ug9/Bhavesh.Joshi.Super.Hero.2018.Hindi.720p.WEB-DL.AVC.AAC-Team.Telly.Exclusive.mp4

700MB LINKS

http://www.heroupload.us/f75bd25abd995774/Bhavesh.Joshi.Super.Hero.2018.Hindi.720p.WEB-DL.AVC.AAC-Team.Telly.Exclusive.part1.rar
http://www.heroupload.us/6a88e684fac1cf69/Bhavesh.Joshi.Super.Hero.2018.Hindi.720p.WEB-DL.AVC.AAC-Team.Telly.Exclusive.part2.rar
http://www.heroupload.us/0cd987ce850c5ee1/Bhavesh.Joshi.Super.Hero.2018.Hindi.720p.WEB-DL.AVC.AAC-Team.Telly.Exclusive.part3.rar
http://www.heroupload.us/59ad1b48526550fc/Bhavesh.Joshi.Super.Hero.2018.Hindi.720p.WEB-DL.AVC.AAC-Team.Telly.Exclusive.part4.rar



http://filefloater.com/Uga/Bhavesh.Joshi.Super.Hero.2018.Hindi.720p.WEB-DL.AVC.AAC-Team.Telly.Exclusive.part1.rar
http://filefloater.com/Ugb/Bhavesh.Joshi.Super.Hero.2018.Hindi.720p.WEB-DL.AVC.AAC-Team.Telly.Exclusive.part2.rar
http://filefloater.com/Ugc/Bhavesh.Joshi.Super.Hero.2018.Hindi.720p.WEB-DL.AVC.AAC-Team.Telly.Exclusive.part3.rar
http://filefloater.com/Ugd/Bhavesh.Joshi.Super.Hero.2018.Hindi.720p.WEB-DL.AVC.AAC-Team.Telly.Exclusive.part4.rar


Buy Premium From My Links & Support Me

Previous Next
Top